<?xml version="1.0" standalone="no"?>
<!DOCTYPE svg PUBLIC "-//W3C//DTD SVG 1.1//EN" "http://www.w3.org/Graphics/SVG/1.1/DTD/svg11.dtd">
<svg xmlns="http://www.w3.org/2000/svg">
<metadata>Copyright (C) 2023 by original authors @ fontello.com</metadata>
<defs>
<font id="reverselogix-icons" horiz-adv-x="1000" >
<font-face font-family="reverselogix-icons" font-weight="400" font-stretch="normal" units-per-em="1000" ascent="850" descent="-150" />
<missing-glyph horiz-adv-x="1000" />
<glyph glyph-name="asset-1" unicode="&#xe800;" d="M1000 743v-786a107 107 0 0 0-107-107h-306v340h128l25 160h-153v104a80 80 0 0 0 90 86h70v137a847 847 0 0 1-124 10c-127 0-209-76-209-215v-122h-141v-160h141v-340h-307a107 107 0 0 0-107 107v786a107 107 0 0 0 107 107h786a107 107 0 0 0 107-107z" horiz-adv-x="1000" />

<glyph glyph-name="asset-2" unicode="&#xe801;" d="M1124 417l-393-340a54 54 0 0 0-88 41v196c-346-5-496-91-394-414a40 40 0 0 0-63-42c-98 71-186 207-186 344 0 340 284 412 643 416v178a54 54 0 0 0 88 41l393-339a54 54 0 0 0 0-81z" horiz-adv-x="1143" />

<glyph glyph-name="asset-3" unicode="&#xe802;" d="M1248 732a515 515 0 0 0-147-40 254 254 0 0 1 113 140 517 517 0 0 0-163-62 257 257 0 0 1-187 80 254 254 0 0 1-256-252 250 250 0 0 1 7-58 731 731 0 0 0-528 264 249 249 0 0 1-35-127 251 251 0 0 1 114-210 258 258 0 0 0-116 31v-3a254 254 0 0 1 206-247 261 261 0 0 0-68-9 257 257 0 0 0-48 4 256 256 0 0 1 239-175 518 518 0 0 0-318-108 524 524 0 0 0-61 3 732 732 0 0 1 393-113 718 718 0 0 1 728 708q0 5 0 10 0 17 0 33a515 515 0 0 1 127 131z" horiz-adv-x="1248" />

<glyph glyph-name="asset-4" unicode="&#xe803;" d="M6404 850v-1000h-6404v1000z" horiz-adv-x="6404" />

<glyph glyph-name="asset-5" unicode="&#xe804;" d="M1000 265h-415v-415h-170v415h-415v170h415v415h170v-415h415z" horiz-adv-x="1000" />

<glyph glyph-name="asset-6" unicode="&#xe805;" d="M666 687l-166 163-500-500 500-500 166 163-340 337z" horiz-adv-x="666" />

<glyph glyph-name="asset-7" unicode="&#xe806;" d="M0 13l166-163 500 500-500 500-166-163 341-337z" horiz-adv-x="666" />

<glyph glyph-name="asset-8" unicode="&#xe807;" d="M411 28a411 411 0 1 0 411 411 411 411 0 0 0-411-411z m0 783a372 372 0 1 1 372-372 373 373 0 0 1-372 372z m557-955a19 19 0 0 1 0 27l-275 280a19 19 0 0 1-28-27l275-280a19 19 0 0 1 28 0z" horiz-adv-x="973" />

<glyph glyph-name="asset-9" unicode="&#xe808;" d="M73 147l-73-74 223-223 223 223-73 74-150-152z m300 406l73 74-223 223-223-223 73-74 150 152z" horiz-adv-x="446" />

<glyph glyph-name="asset-10" unicode="&#xe809;" d="M1000 350a500 500 0 1 0-500 500h0a500 500 0 0 0 500-500z m-558-265l371 371a32 32 0 0 1 0 46l0 0-45 46a32 32 0 0 1-46 0l0 0-303-303-141 141a32 32 0 0 1-45 0l0 0-46-45a32 32 0 0 1 0-46l0 0 210-210a32 32 0 0 1 45 0z" horiz-adv-x="1000" />

<glyph glyph-name="asset-11" unicode="&#xe80a;" d="M1000 778v-856a72 72 0 0 0-71-72h-858a72 72 0 0 0-71 72v856a72 72 0 0 0 71 72h858a72 72 0 0 0 71-72z m-686-157a86 86 0 1 1-86-86 86 86 0 0 1 86 86z m-11-628v477h-149v-477z m555 262c0 128-28 227-178 227a156 156 0 0 1-140-77h-2v65h-143v-477h149v236c0 62 11 122 89 122 76 0 77-71 77-126v-232h148z" horiz-adv-x="1000" />

<glyph glyph-name="asset-12" unicode="&#xe80b;" d="M1563 349s0-233-33-345a186 186 0 0 0-138-124c-122-30-611-30-611-30s-488 0-610 30a186 186 0 0 0-138 125c-33 111-33 344-33 344s0 233 33 345a188 188 0 0 0 138 126c122 30 610 30 610 30s489 0 611-30a188 188 0 0 0 138-126c33-112 33-345 33-345z m-533 0l-408 211v-422z" horiz-adv-x="1563" />

<glyph glyph-name="asset-13" unicode="&#xe80c;" d="M964-150h-107a36 36 0 0 0-35 34 822 822 0 0 1-787 787 36 36 0 0 0-35 36v107a36 36 0 0 0 36 36l1 0a1001 1001 0 0 0 963-963 36 36 0 0 0-35-37c0 0 0 0-1 0z m-322 0h-107a36 36 0 0 0-36 33 500 500 0 0 1-466 466 36 36 0 0 0-33 36v107a36 36 0 0 0 36 36c0 0 1 0 1 0a679 679 0 0 0 641-641 36 36 0 0 0-34-37c-1 0-1 0-2 0z m-486 0a156 156 0 1 0 157 156 156 156 0 0 0-157-156z" horiz-adv-x="1000" />

<glyph glyph-name="asset-14" unicode="&#xe80d;" d="M648-150l-85 85 353 354h-916v122h916l-353 353 85 86 501-500z" horiz-adv-x="1148" />

<glyph glyph-name="asset-15" unicode="&#xe80e;" d="M278-150a19 19 0 0 0-20 19v389a3 3 0 0 1-3 3h-172a3 3 0 0 1-3-3v-389a19 19 0 0 0-39 0v389a42 42 0 0 0 42 42h172a42 42 0 0 0 42-42v-389a19 19 0 0 0-19-19z m640 0a19 19 0 0 0-20 19v429a3 3 0 0 1-3 4h-172a3 3 0 0 1-3-4v-429a19 19 0 0 0-39 0v429a42 42 0 0 0 42 42h172a42 42 0 0 0 42-42v-429a19 19 0 0 0-19-19z m-316 0a19 19 0 0 0-19 19v610a3 3 0 0 1-4 3h-172a3 3 0 0 1-3-3v-610a19 19 0 0 0-39 0v610a42 42 0 0 0 42 42h172a42 42 0 0 0 42-42v-610a19 19 0 0 0-19-19z m244 806a108 108 0 0 1-86-42l-183 96a108 108 0 1 1-199-19l-198-158a108 108 0 1 1 24-30l198 158a108 108 0 0 1 157 14l183-96a108 108 0 1 1 104 77z m-738-273a70 70 0 1 0 70 69 70 70 0 0 0-70-69z m366 289a70 70 0 1 0 69 70 70 70 0 0 0-69-70z m372-193a70 70 0 1 0 69 69 70 70 0 0 0-69-69z" horiz-adv-x="954" />

<glyph glyph-name="number-1-icon" unicode="&#xe80f;" d="M0 540v133a811 811 0 0 1 131 13 182 182 0 0 1 96 52 177 177 0 0 1 39 71 203 203 0 0 1 7 41h163v-1000h-201v690z m777-484h212v-206h-212z" horiz-adv-x="985" />

<glyph glyph-name="number-2-icon" unicode="&#xe810;" d="M0-150a470 470 0 0 0 46 195 554 554 0 0 0 198 211 1440 1440 0 0 1 177 138 211 211 0 0 1 61 140 161 161 0 0 1-38 106 125 125 0 0 1-100 42 122 122 0 0 1-121-67 327 327 0 0 1-22-122h-190a480 480 0 0 0 46 207 285 285 0 0 0 277 150 351 351 0 0 0 251-88 303 303 0 0 0 94-232 313 313 0 0 0-66-196 643 643 0 0 0-141-127l-79-59q-70-52-101-75a222 222 0 0 1-45-55h434v-172z m825 204h210v-204h-210z" horiz-adv-x="1032" />

<glyph glyph-name="number-3-icon" unicode="&#xe811;" d="M188 173a210 210 0 0 1 18-96 128 128 0 0 1 126-69 145 145 0 0 1 98 39 149 149 0 0 1 42 111 127 127 0 0 1-77 126 411 411 0 0 1-137 17v138a351 351 0 0 1 130 19 111 111 0 0 1 63 113 127 127 0 0 1-32 90 117 117 0 0 1-92 35 115 115 0 0 1-99-43 184 184 0 0 1-31-114h-180a519 519 0 0 0 25 137 314 314 0 0 0 74 106 254 254 0 0 0 90 50 378 378 0 0 0 126 18 332 332 0 0 0 224-73 239 239 0 0 0 85-192 218 218 0 0 0-51-146 178 178 0 0 0-68-50 141 141 0 0 0 75-45 240 240 0 0 0 73-185 312 312 0 0 0-86-216 324 324 0 0 0-252-93q-206 0-287 137a404 404 0 0 0-45 186z m624-98h205v-200h-205z" horiz-adv-x="1014" />

<glyph glyph-name="number-4-icon" unicode="&#xe812;" d="M706 68h-114v-213h-193v213h-399v172l370 610h222v-629h114z m-307 153v434l-253-434z m443-164h213v-207h-213z" horiz-adv-x="1052" />

<glyph glyph-name="asset-16" unicode="&#xe813;" d="M562 335c0-26-21-47-47-47h-219c-26 0-46 21-46 47s20 47 46 47h219c26 0 47-20 47-47z m436 390v-561c0-69-56-125-124-125h-272l-198-148h0s-9-8-9-8l-33-25c-9-8-22-8-33-3-11 4-17 15-17 28v156h-187c-69 0-125 56-125 125v561c0 69 56 125 125 125h749c68 0 124-56 124-125z m-93 0c0 17-14 31-31 31h-749c-17 0-31-14-31-31v-561c0-18 14-32 31-32h187c52 0 94-42 94-93v-31l142 106c15 12 36 18 56 18h271c17 0 31 14 31 32v561z m-203-156h-406c-26 0-46-20-46-47s20-46 46-46h406c27 0 47 20 47 46s-20 47-47 47z" horiz-adv-x="1000" />
</font>
</defs>
</svg>
